Téléchargement Gratuit ZoneTelechargement

..

Hitcher multi

Telecharger hitcher multi

Aide


Vous devez vous inscrire afin de télécharger
Veuillez créer un compte gratuitement sur Torrent9 pour accéder aux téléchargements illimités et au streaming !


INFORMATION FILM:
Origine: U.S.A
Réalisateur (trice):Robert Harmon
Acteurs(trices): Rutger Hauer, C. Thomas Howell, Jennifer Jason Leigh&#;
Genre: Thriller
Année de sortie: 25 juin
Durée: 1h37min
Titre original: The Hitcher
bringdadabeer.com

SYNOPSIS:
Alors qu’il fait route pour la Californie, un jeune américain prend un auto-stoppeur s’avérant être un véritable psychopathe. Pour le héros, Jim Halsey, c’est le début d’un long voyage vers l’horreur, à la fois traqué par le tueur et pris pour cible par la police qui le rend responsable des meurtres qu’il n’a pas commis.

INFORMATION UPLOAD:
Qualité: BluRay p
Résolution: &#;
Codec: x / MKV
Débit vidéo:  Mbps
Frame rate: FPS
Audio : Français / Dolby Digital   @kbps
Audio : English / DTS   @kbps
Sous-titres: Français complets @ SRT
Chapitres: Oui
Taille: Go
Taille multi (WinRAR): 13x Mo + 1x Mo + 5% restauration

VOIR NFO :

Format : Matroska Format version : Version 4 / Version 2 File size : GiB Duration : 1 h 37 min Overall bit rate mode : Variable Overall bit rate : Mb/s Encoded date : UTC Writing application : mkvmerge v ('Forever And More') bit Writing library : libebml v + libmatroska v Video ID : 1 Format : AVC Format/Info : Advanced Video Codec Format profile : [email protected] Format settings : CABAC / 5 Ref Frames Format settings, CABAC : Yes Format settings, RefFrames : 5 frames Codec ID : V_MPEG4/ISO/AVC Duration : 1 h 37 min Bit rate mode : Variable Bit rate : Mb/s Maximum bit rate : Mb/s Width : 1 pixels Height : pixels Display aspect ratio : Frame rate mode : Constant Frame rate : FPS Color space : YUV Chroma subsampling : Bit depth : 8 bits Scan type : Progressive Bits/(Pixel*Frame) : Stream size : GiB (89%) Writing library : x core r de2f Encoding settings : cabac=1 / ref=5 / deblock= / analyse=0xx / me=umh / subme=9 / psy=1 / psy_rd= / mixed_ref=1 / me_range=24 / chroma_me=1 / trellis=2 / 8x8dct=1 / cqm=0 / deadzone=21,11 / fast_pskip=1 / chroma_qp_offset=-3 / threads=12 / lookahead_threads=1 / sliced_threads=0 / nr=0 / decimate=1 / interlaced=0 / bluray_compat=0 / constrained_intra=0 / bframes=6 / b_pyramid=2 / b_adapt=1 / b_bias=0 / direct=3 / weightb=1 / open_gop=0 / weightp=2 / keyint= / keyint_min=24 / scenecut=40 / intra_refresh=0 / rc_lookahead=60 / rc=2pass / mbtree=1 / bitrate= / ratetol= / qcomp= / qpmin=0 / qpmax=69 / qpstep=4 / cplxblur= / qblur= / vbv_maxrate= / vbv_bufsize= / nal_hrd=vbr / filler=0 / ip_ratio= / aq= Default : Yes Forced : No Color range : Limited Color primaries : BT Transfer characteristics : BT Matrix coefficients : BT Audio #1 ID : 2 Format : AC-3 Format/Info : Audio Coding 3 Codec ID : A_AC3 Duration : 1 h 37 min Bit rate mode : Constant Bit rate : kb/s Channel(s) : 2 channels Channel positions : Front: L R Sampling rate : kHz Frame rate : FPS ( SPF) Bit depth : 16 bits Compression mode : Lossy Stream size : MiB (1%) Language : French Service kind : Complete Main Default : Yes Forced : No Audio #2 ID : 3 Format : DTS Format/Info : Digital Theater Systems Codec ID : A_DTS Duration : 1 h 37 min Bit rate mode : Constant Bit rate : 1 kb/s Channel(s) : 6 channels Channel positions : Front: L C R, Side: L R, LFE Sampling rate : kHz Frame rate : FPS ( SPF) Bit depth : 24 bits Compression mode : Lossy Stream size : GiB (9%) Language : English Default : No Forced : No Text #1 ID : 4 Format : UTF-8 Codec ID : S_TEXT/UTF8 Codec ID/Info : UTF-8 Plain Text Duration : 2 s ms Bit rate : 79 b/s Count of elements : 1 Stream size : Bytes (0%) Title : Forces Language : French Default : Yes Forced : No Text #2 ID : 5 Format : UTF-8 Codec ID : S_TEXT/UTF8 Codec ID/Info : UTF-8 Plain Text Duration : 1 h 34 min Bit rate : 16 b/s Count of elements : Stream size : KiB (0%) Title : Complets Language : French Default : No Forced : No Menu : en:Chapter 01 : en:Chapter 02 : en:Chapter 03 : en:Chapter 04 : en:Chapter 05 : en:Chapter 06 : en:Chapter 07 : en:Chapter 08 : en:Chapter 09 : en:Chapter 10 : en:Chapter 11 : en:Chapter 12

SCREENSHOT



 

BANDE ANNONCE VO:

 

SCREENSHOT COMPARAISON: DVD Vs BluRay
bringdadabeer.com

 

TELECHARGEMENT

Cet article a été posté dans Thriller avec les mots-clefs C. Thomas Howell, Jennifer Jason Leigh, Rutger Hauer par qwertz Enregistrer le permalien.

  • Creer monatge video photos
  • Mangas asai nikki
  • Download link in description
  • App des parties dechec
  • Jeux sur origin mais introuvable
  • Nicola sirkis reportage 100 mag